  0
SECTION
  2
HEADER
  9
$ACADVER
  1
AC1014
  9
$ACADMAINTVER
 70
     9
  9
$DWGCODEPAGE
  3
ANSI_1252
  9
$INSBASE
 10
0.0
 20
0.0
 30
0.0
  9
$EXTMIN
 10
-78.74000000000001
 20
-78.74000000000001
 30
0.0
  9
$EXTMAX
 10
78.74000000000001
 20
103.6297748976808
 30
0.0
  9
$LIMMIN
 10
0.0
 20
0.0
  9
$LIMMAX
 10
420.0
 20
297.0
  9
$ORTHOMODE
 70
     0
  9
$REGENMODE
 70
     1
  9
$FILLMODE
 70
     1
  9
$QTEXTMODE
 70
     0
  9
$MIRRTEXT
 70
     0
  9
$DRAGMODE
 70
     2
  9
$LTSCALE
 40
1.0
  9
$OSMODE
 70
   511
  9
$ATTMODE
 70
     1
  9
$TEXTSIZE
 40
2.5
  9
$TRACEWID
 40
1.0
  9
$TEXTSTYLE
  7
STANDARD
  9
$CLAYER
  8
CONTORNO
  9
$CELTYPE
  6
BYLAYER
  9
$CECOLOR
 62
   256
  9
$CELTSCALE
 40
1.0
  9
$DELOBJ
 70
     1
  9
$DISPSILH
 70
     0
  9
$DIMSCALE
 40
1.0
  9
$DIMASZ
 40
2.5
  9
$DIMEXO
 40
0.625
  9
$DIMDLI
 40
3.75
  9
$DIMRND
 40
0.0
  9
$DIMDLE
 40
0.0
  9
$DIMEXE
 40
1.25
  9
$DIMTP
 40
0.0
  9
$DIMTM
 40
0.0
  9
$DIMTXT
 40
2.5
  9
$DIMCEN
 40
2.5
  9
$DIMTSZ
 40
0.0
  9
$DIMTOL
 70
     0
  9
$DIMLIM
 70
     0
  9
$DIMTIH
 70
     0
  9
$DIMTOH
 70
     0
  9
$DIMSE1
 70
     0
  9
$DIMSE2
 70
     0
  9
$DIMTAD
 70
     1
  9
$DIMZIN
 70
     8
  9
$DIMBLK
  1

  9
$DIMASO
 70
     1
  9
$DIMSHO
 70
     1
  9
$DIMPOST
  1

  9
$DIMAPOST
  1

  9
$DIMALT
 70
     0
  9
$DIMALTD
 70
     3
  9
$DIMALTF
 40
0.03937007874016
  9
$DIMLFAC
 40
1.0
  9
$DIMTOFL
 70
     1
  9
$DIMTVP
 40
0.0
  9
$DIMTIX
 70
     0
  9
$DIMSOXD
 70
     0
  9
$DIMSAH
 70
     0
  9
$DIMBLK1
  1

  9
$DIMBLK2
  1

  9
$DIMSTYLE
  2
ISO-25
  9
$DIMCLRD
 70
     0
  9
$DIMCLRE
 70
     0
  9
$DIMCLRT
 70
     0
  9
$DIMTFAC
 40
1.0
  9
$DIMGAP
 40
0.625
  9
$DIMJUST
 70
     0
  9
$DIMSD1
 70
     0
  9
$DIMSD2
 70
     0
  9
$DIMTOLJ
 70
     0
  9
$DIMTZIN
 70
     8
  9
$DIMALTZ
 70
     0
  9
$DIMALTTZ
 70
     0
  9
$DIMFIT
 70
     3
  9
$DIMUPT
 70
     0
  9
$DIMUNIT
 70
     2
  9
$DIMDEC
 70
     2
  9
$DIMTDEC
 70
     2
  9
$DIMALTU
 70
     2
  9
$DIMALTTD
 70
     3
  9
$DIMTXSTY
  7
STANDARD
  9
$DIMAUNIT
 70
     0
  9
$LUNITS
 70
     2
  9
$LUPREC
 70
     3
  9
$SKETCHINC
 40
1.0
  9
$FILLETRAD
 40
10.0
  9
$AUNITS
 70
     0
  9
$AUPREC
 70
     0
  9
$MENU
  1
.
  9
$ELEVATION
 40
0.0
  9
$PELEVATION
 40
0.0
  9
$THICKNESS
 40
0.0
  9
$LIMCHECK
 70
     0
  9
$CHAMFERA
 40
10.0
  9
$CHAMFERB
 40
10.0
  9
$CHAMFERC
 40
20.0
  9
$CHAMFERD
 40
0.0
  9
$SKPOLY
 70
     0
  9
$TDCREATE
 40
2455022.67902618
  9
$TDUPDATE
 40
2457248.621666667
  9
$TDINDWG
 40
0.0
  9
$TDUSRTIMER
 40
2457248.522696759
  9
$USRTIMER
 70
     1
  9
$ANGBASE
 50
0.0
  9
$ANGDIR
 70
     0
  9
$PDMODE
 70
     0
  9
$PDSIZE
 40
0.0
  9
$PLINEWID
 40
0.0
  9
$COORDS
 70
     1
  9
$SPLFRAME
 70
     0
  9
$SPLINETYPE
 70
     6
  9
$SPLINESEGS
 70
     8
  9
$ATTDIA
 70
     0
  9
$ATTREQ
 70
     1
  9
$HANDLING
 70
     1
  9
$HANDSEED
  5
156
  9
$SURFTAB1
 70
     6
  9
$SURFTAB2
 70
     6
  9
$SURFTYPE
 70
     6
  9
$SURFU
 70
     6
  9
$SURFV
 70
     6
  9
$UCSNAME
  2

  9
$UCSORG
 10
0.0
 20
0.0
 30
0.0
  9
$UCSXDIR
 10
1.0
 20
0.0
 30
0.0
  9
$UCSYDIR
 10
0.0
 20
1.0
 30
0.0
  9
$PUCSNAME
  2

  9
$PUCSORG
 10
0.0
 20
0.0
 30
0.0
  9
$PUCSXDIR
 10
1.0
 20
0.0
 30
0.0
  9
$PUCSYDIR
 10
0.0
 20
1.0
 30
0.0
  9
$USERI1
 70
     0
  9
$USERI2
 70
     0
  9
$USERI3
 70
     0
  9
$USERI4
 70
     0
  9
$USERI5
 70
     0
  9
$USERR1
 40
0.0
  9
$USERR2
 40
0.0
  9
$USERR3
 40
0.0
  9
$USERR4
 40
0.0
  9
$USERR5
 40
0.0
  9
$WORLDVIEW
 70
     1
  9
$SHADEDGE
 70
     3
  9
$SHADEDIF
 70
    70
  9
$TILEMODE
 70
     1
  9
$MAXACTVP
 70
    64
  9
$PINSBASE
 10
0.0
 20
0.0
 30
0.0
  9
$PLIMCHECK
 70
     0
  9
$PEXTMIN
 10
1.000000000000000E+20
 20
1.000000000000000E+20
 30
1.000000000000000E+20
  9
$PEXTMAX
 10
-1.000000000000000E+20
 20
-1.000000000000000E+20
 30
-1.000000000000000E+20
  9
$PLIMMIN
 10
0.0
 20
0.0
  9
$PLIMMAX
 10
0.0
 20
0.0
  9
$UNITMODE
 70
     0
  9
$VISRETAIN
 70
     1
  9
$PLINEGEN
 70
     0
  9
$PSLTSCALE
 70
     1
  9
$TREEDEPTH
 70
  3020
  9
$PICKSTYLE
 70
     0
  9
$CMLSTYLE
  2
STANDARD
  9
$CMLJUST
 70
     0
  9
$CMLSCALE
 40
20.0
  9
$PROXYGRAPHICS
 70
     1
  9
$MEASUREMENT
 70
     1
  0
ENDSEC
  0
SECTION
  2
CLASSES
  0
CLASS
  1
ACDBDICTIONARYWDFLT
  2
AcDbDictionaryWithDefault
  3
ObjectDBX Classes
 90
        0
280
     0
281
     0
  0
CLASS
  1
VISUALSTYLE
  2
AcDbVisualStyle
  3
ObjectDBX Classes
 90
     4095
280
     0
281
     0
  0
CLASS
  1
TABLESTYLE
  2
AcDbTableStyle
  3
ObjectDBX Classes
 90
     4095
280
     0
281
     0
  0
CLASS
  1
DICTIONARYVAR
  2
AcDbDictionaryVar
  3
ObjectDBX Classes
 90
        0
280
     0
281
     0
  0
CLASS
  1
SCALE
  2
AcDbScale
  3
ObjectDBX Classes
 90
     1153
280
     0
281
     0
  0
CLASS
  1
CELLSTYLEMAP
  2
AcDbCellStyleMap
  3
ObjectDBX Classes
 90
     1152
280
     0
281
     0
  0
CLASS
  1
RASTERVARIABLES
  2
AcDbRasterVariables
  3
ISM
 90
        0
280
     0
281
     0
  0
CLASS
  1
MATERIAL
  2
AcDbMaterial
  3
ObjectDBX Classes
 90
     1153
280
     0
281
     0
  0
CLASS
  1
SUN
  2
AcDbSun
  3
SCENEOE
 90
     1153
280
     0
281
     0
  0
CLASS
  1
MLEADERSTYLE
  2
AcDbMLeaderStyle
  3
ACDB_MLEADERSTYLE_CLASS
 90
     4095
280
     0
281
     0
  0
CLASS
  1
DIMASSOC
  2
AcDbDimAssoc
  3
"AcDbDimAssoc|Product Desc:     AcDim ARX App For Dimension|Company:          Autodesk, Inc.|WEB Address:      www.autodesk.com"
 90
        0
280
     0
281
     0
  0
CLASS
  1
XRECORD
  2
AcDbXrecord
  3
ObjectDBX Classes
 90
        0
280
     0
281
     0
  0
CLASS
  1
LWPOLYLINE
  2
AcDbPolyline
  3
ObjectDBX Classes
 90
        0
280
     0
281
     1
  0
CLASS
  1
HATCH
  2
AcDbHatch
  3
ObjectDBX Classes
 90
        0
280
     0
281
     1
  0
ENDSEC
  0
SECTION
  2
TABLES
  0
TABLE
  2
VPORT
  5
8
330
0
100
AcDbSymbolTable
 70
     1
  0
VPORT
  5
29
330
8
100
AcDbSymbolTableRecord
100
AcDbViewportTableRecord
  2
*ACTIVE
 70
     0
 10
0.0
 20
0.0
 11
1.0
 21
1.0
 12
79.74808177183465
 22
15.90154106367193
 13
0.0
 23
0.0
 14
10.0
 24
10.0
 15
10.0
 25
10.0
 16
0.0
 26
0.0
 36
1.0
 17
-134.1869158878504
 27
0.0
 37
0.0
 40
308.16
 41
1.875
 42
50.0
 43
0.0
 44
0.0
 50
0.0
 51
0.0
 71
    16
 72
  1000
 73
     1
 74
     3
 75
     0
 76
     0
 77
     0
 78
     0
  0
ENDTAB
  0
TABLE
  2
LTYPE
  5
5
330
0
100
AcDbSymbolTable
 70
     1
  0
LTYPE
  5
14
330
5
100
AcDbSymbolTableRecord
100
AcDbLinetypeTableRecord
  2
BYBLOCK
 70
     0
  3

 72
    65
 73
     0
 40
0.0
  0
LTYPE
  5
15
330
5
100
AcDbSymbolTableRecord
100
AcDbLinetypeTableRecord
  2
BYLAYER
 70
     0
  3
Solid line
 72
    65
 73
     0
 40
0.0
  0
LTYPE
  5
16
330
5
100
AcDbSymbolTableRecord
100
AcDbLinetypeTableRecord
  2
CONTINUOUS
 70
     0
  3
Solid line
 72
    65
 73
     0
 40
0.0
  0
ENDTAB
  0
TABLE
  2
LAYER
  5
2
102
{ACAD_XDICTIONARY
360
108
102
}
330
0
100
AcDbSymbolTable
 70
     3
  0
LAYER
  5
10
330
2
100
AcDbSymbolTableRecord
100
AcDbLayerTableRecord
  2
0
 70
     0
 62
    -7
  6
CONTINUOUS
  0
LAYER
  5
10B
330
2
100
AcDbSymbolTableRecord
100
AcDbLayerTableRecord
  2
CONTORNO
 70
     0
 62
     1
  6
CONTINUOUS
1001
ACAECLAYERSTANDARD
1000

1000

  0
LAYER
  5
117
330
2
100
AcDbSymbolTableRecord
100
AcDbLayerTableRecord
  2
DEFPOINTS
 70
     0
 62
     7
  6
CONTINUOUS
  0
ENDTAB
  0
TABLE
  2
STYLE
  5
3
330
0
100
AcDbSymbolTable
 70
     1
  0
STYLE
  5
11
330
3
100
AcDbSymbolTableRecord
100
AcDbTextStyleTableRecord
  2
STANDARD
 70
     0
 40
0.0
 41
1.0
 50
0.0
 71
     0
 42
2.5
  3
arial.ttf
  4

1001
ACAD
1000
Arial
1071
        0
  0
ENDTAB
  0
TABLE
  2
VIEW
  5
6
330
0
100
AcDbSymbolTable
 70
     0
  0
ENDTAB
  0
TABLE
  2
UCS
  5
7
330
0
100
AcDbSymbolTable
 70
     0
  0
ENDTAB
  0
TABLE
  2
APPID
  5
9
330
0
100
AcDbSymbolTable
 70
     2
  0
APPID
  5
12
330
9
100
AcDbSymbolTableRecord
100
AcDbRegAppTableRecord
  2
ACAD
 70
     0
  0
APPID
  5
10C
330
9
100
AcDbSymbolTableRecord
100
AcDbRegAppTableRecord
  2
ACAECLAYERSTANDARD
 70
     0
  0
ENDTAB
  0
TABLE
  2
DIMSTYLE
  5
A
330
0
100
AcDbSymbolTable
 70
     1
  0
DIMSTYLE
105
27
102
{ACAD_REACTORS
330
118
330
127
330
136
330
145
102
}
330
A
100
AcDbSymbolTableRecord
100
AcDbDimStyleTableRecord
  2
ISO-25
 70
     0
  3

  4

  5

  6

  7

 40
1.0
 41
2.5
 42
0.625
 43
3.75
 44
1.25
 45
0.0
 46
0.0
 47
0.0
 48
0.0
140
2.5
141
2.5
142
0.0
143
0.03937007874016
144
1.0
145
0.0
146
1.0
147
0.625
 71
     0
 72
     0
 73
     0
 74
     0
 75
     0
 76
     0
 77
     1
 78
     8
170
     0
171
     3
172
     1
173
     0
174
     0
175
     0
176
     0
177
     0
178
     0
270
     2
271
     2
272
     2
273
     2
274
     3
340
11
275
     0
280
     0
281
     0
282
     0
283
     0
284
     8
285
     0
286
     0
287
     3
288
     0
  0
ENDTAB
  0
TABLE
  2
BLOCK_RECORD
  5
1
330
0
100
AcDbSymbolTable
 70
     5
  0
BLOCK_RECORD
  5
1F
330
1
100
AcDbSymbolTableRecord
100
AcDbBlockTableRecord
  2
*MODEL_SPACE
  0
BLOCK_RECORD
  5
1B
330
1
100
AcDbSymbolTableRecord
100
AcDbBlockTableRecord
  2
*PAPER_SPACE
  0
BLOCK_RECORD
  5
23
330
1
100
AcDbSymbolTableRecord
100
AcDbBlockTableRecord
  2
*PAPER_SPACE0
  0
BLOCK_RECORD
  5
11B
330
1
100
AcDbSymbolTableRecord
100
AcDbBlockTableRecord
  2
*D1
  0
BLOCK_RECORD
  5
12A
330
1
100
AcDbSymbolTableRecord
100
AcDbBlockTableRecord
  2
*D2
  0
BLOCK_RECORD
  5
139
330
1
100
AcDbSymbolTableRecord
100
AcDbBlockTableRecord
  2
*D3
  0
BLOCK_RECORD
  5
148
330
1
100
AcDbSymbolTableRecord
100
AcDbBlockTableRecord
  2
*D4
  0
ENDTAB
  0
ENDSEC
  0
SECTION
  2
BLOCKS
  0
BLOCK
  5
20
330
1F
100
AcDbEntity
  8
0
100
AcDbBlockBegin
  2
*MODEL_SPACE
 70
     0
 10
0.0
 20
0.0
 30
0.0
  3
*MODEL_SPACE
  1

  0
ENDBLK
  5
21
330
1F
100
AcDbEntity
  8
0
100
AcDbBlockEnd
  0
BLOCK
  5
1C
330
1B
100
AcDbEntity
 67
     1
  8
0
100
AcDbBlockBegin
  2
*PAPER_SPACE
 70
     0
 10
0.0
 20
0.0
 30
0.0
  3
*PAPER_SPACE
  1

  0
ENDBLK
  5
1D
330
1B
100
AcDbEntity
 67
     1
  8
0
100
AcDbBlockEnd
  0
BLOCK
  5
24
330
23
100
AcDbEntity
  8
0
100
AcDbBlockBegin
  2
*PAPER_SPACE0
 70
     0
 10
0.0
 20
0.0
 30
0.0
  3
*PAPER_SPACE0
  1
*PAPER_SPACE0
  0
VIEWPORT
  5
111
330
23
100
AcDbEntity
  8
0
100
AcDbViewport
 10
173.5666666666666
 20
103.7166666666667
 30
0.0
 40
416.5599999999999
 41
248.92
 68
     1
 69
     1
1001
ACAD
1000
MVIEW
1002
{
1070
    16
1010
0.0
1020
0.0
1030
0.0
1010
0.0
1020
0.0
1030
1.0
1040
0.0
1040
248.92
1040
173.5666666666666
1040
103.7166666666667
1040
50.0
1040
0.0
1040
0.0
1070
     0
1070
   100
1070
     0
1070
     3
1070
     0
1070
     0
1070
     0
1070
     0
1040
0.0
1040
0.0
1040
0.0
1040
0.5
1040
0.5
1040
0.0
1040
0.0
1070
     0
1002
{
1002
}
1002
}
  0
VIEWPORT
  5
112
330
23
100
AcDbEntity
  8
0
100
AcDbViewport
 10
173.5666666666666
 20
103.7166666666667
 30
0.0
 40
277.7066666666666
 41
165.9466666666667
 68
     2
 69
     2
1001
ACAD
1000
MVIEW
1002
{
1070
    16
1010
0.0
1020
0.0
1030
0.0
1010
0.0
1020
0.0
1030
1.0
1040
0.0
1040
160.6296
1040
0.0
1040
0.0
1040
50.0
1040
0.0
1040
0.0
1070
     0
1070
   100
1070
     0
1070
     3
1070
     0
1070
     0
1070
     0
1070
     0
1040
0.0
1040
0.0
1040
0.0
1040
0.5
1040
0.5
1040
0.0
1040
0.0
1070
     0
1002
{
1002
}
1002
}
  0
ENDBLK
  5
25
330
23
100
AcDbEntity
  8
0
100
AcDbBlockEnd
  0
BLOCK
  5
11C
330
11B
100
AcDbEntity
  8
0
100
AcDbBlockBegin
  2
*D1
 70
     1
 10
0.0
 20
0.0
 30
0.0
  3
*D1
  1
*D1
  0
LINE
  5
11E
330
11B
100
AcDbEntity
  8
CONTORNO
 62
     0
100
AcDbLine
 10
-78.74000000000001
 20
7.550179736328133
 30
0.0
 11
-78.74000000000001
 21
101.25
 31
0.0
  0
LINE
  5
11F
330
11B
100
AcDbEntity
  8
CONTORNO
 62
     0
100
AcDbLine
 10
78.74000000000001
 20
7.550179736328133
 30
0.0
 11
78.74000000000001
 21
101.25
 31
0.0
  0
LINE
  5
120
330
11B
100
AcDbEntity
  8
CONTORNO
 62
     0
100
AcDbLine
 10
-76.24000000000001
 20
100.0
 30
0.0
 11
76.24000000000001
 21
100.0
 31
0.0
  0
SOLID
  5
121
330
11B
100
AcDbEntity
  8
CONTORNO
 62
     0
100
AcDbTrace
 10
-76.24000000000001
 20
100.4166666666667
 30
0.0
 11
-76.24000000000001
 21
99.58333333333333
 31
0.0
 12
-78.74000000000001
 22
100.0
 32
0.0
 13
-78.74000000000001
 23
100.0
 33
0.0
  0
SOLID
  5
122
330
11B
100
AcDbEntity
  8
CONTORNO
 62
     0
100
AcDbTrace
 10
76.24000000000001
 20
99.58333333333333
 30
0.0
 11
76.24000000000001
 21
100.4166666666667
 31
0.0
 12
78.74000000000001
 22
100.0
 32
0.0
 13
78.74000000000001
 23
100.0
 33
0.0
  0
MTEXT
  5
123
330
11B
100
AcDbEntity
  8
CONTORNO
 62
     0
100
AcDbMText
 10
0.0
 20
102.1273874488404
 30
0.0
 40
2.5
 41
0.0
 71
     5
 72
     1
  1
157,48
  0
POINT
  5
124
330
11B
100
AcDbEntity
  8
DEFPOINTS
 62
     0
100
AcDbPoint
 10
-78.74000000000001
 20
6.925179736328133
 30
0.0
  0
POINT
  5
125
330
11B
100
AcDbEntity
  8
DEFPOINTS
 62
     0
100
AcDbPoint
 10
78.74000000000001
 20
6.925179736328133
 30
0.0
  0
POINT
  5
126
330
11B
100
AcDbEntity
  8
DEFPOINTS
 62
     0
100
AcDbPoint
 10
78.74000000000001
 20
100.0
 30
0.0
  0
ENDBLK
  5
11D
330
11B
100
AcDbEntity
  8
0
100
AcDbBlockEnd
  0
BLOCK
  5
12B
330
12A
100
AcDbEntity
  8
0
100
AcDbBlockBegin
  2
*D2
 70
     1
 10
0.0
 20
0.0
 30
0.0
  3
*D2
  1
*D2
  0
LINE
  5
12D
330
12A
100
AcDbEntity
  8
CONTORNO
 62
     0
100
AcDbLine
 10
-72.39
 20
7.365179736328145
 30
0.0
 11
-72.39
 21
96.25
 31
0.0
  0
LINE
  5
12E
330
12A
100
AcDbEntity
  8
CONTORNO
 62
     0
100
AcDbLine
 10
72.39
 20
7.365179736328145
 30
0.0
 11
72.39
 21
96.25
 31
0.0
  0
LINE
  5
12F
330
12A
100
AcDbEntity
  8
CONTORNO
 62
     0
100
AcDbLine
 10
-69.89
 20
95.0
 30
0.0
 11
69.89
 21
95.0
 31
0.0
  0
SOLID
  5
130
330
12A
100
AcDbEntity
  8
CONTORNO
 62
     0
100
AcDbTrace
 10
-69.89
 20
95.41666666666667
 30
0.0
 11
-69.89
 21
94.58333333333333
 31
0.0
 12
-72.39
 22
95.0
 32
0.0
 13
-72.39
 23
95.0
 33
0.0
  0
SOLID
  5
131
330
12A
100
AcDbEntity
  8
CONTORNO
 62
     0
100
AcDbTrace
 10
69.89
 20
94.58333333333333
 30
0.0
 11
69.89
 21
95.41666666666667
 31
0.0
 12
72.39
 22
95.0
 32
0.0
 13
72.39
 23
95.0
 33
0.0
  0
MTEXT
  5
132
330
12A
100
AcDbEntity
  8
CONTORNO
 62
     0
100
AcDbMText
 10
0.0
 20
97.12738744884038
 30
0.0
 40
2.5
 41
0.0
 71
     5
 72
     1
  1
144,78
  0
POINT
  5
133
330
12A
100
AcDbEntity
  8
DEFPOINTS
 62
     0
100
AcDbPoint
 10
-72.39
 20
6.740179736328145
 30
0.0
  0
POINT
  5
134
330
12A
100
AcDbEntity
  8
DEFPOINTS
 62
     0
100
AcDbPoint
 10
72.39
 20
6.740179736328145
 30
0.0
  0
POINT
  5
135
330
12A
100
AcDbEntity
  8
DEFPOINTS
 62
     0
100
AcDbPoint
 10
72.39
 20
95.0
 30
0.0
  0
ENDBLK
  5
12C
330
12A
100
AcDbEntity
  8
0
100
AcDbBlockEnd
  0
BLOCK
  5
13A
330
139
100
AcDbEntity
  8
0
100
AcDbBlockBegin
  2
*D3
 70
     1
 10
0.0
 20
0.0
 30
0.0
  3
*D3
  1
*D3
  0
LINE
  5
13C
330
139
100
AcDbEntity
  8
CONTORNO
 62
     0
100
AcDbLine
 10
-18.5
 20
6.217179736328134
 30
0.0
 11
-18.5
 21
91.25
 31
0.0
  0
LINE
  5
13D
330
139
100
AcDbEntity
  8
CONTORNO
 62
     0
100
AcDbLine
 10
18.5
 20
6.217179736328134
 30
0.0
 11
18.5
 21
91.25
 31
0.0
  0
LINE
  5
13E
330
139
100
AcDbEntity
  8
CONTORNO
 62
     0
100
AcDbLine
 10
-16.0
 20
90.0
 30
0.0
 11
16.0
 21
90.0
 31
0.0
  0
SOLID
  5
13F
330
139
100
AcDbEntity
  8
CONTORNO
 62
     0
100
AcDbTrace
 10
-16.0
 20
90.41666666666667
 30
0.0
 11
-16.0
 21
89.58333333333333
 31
0.0
 12
-18.5
 22
90.0
 32
0.0
 13
-18.5
 23
90.0
 33
0.0
  0
SOLID
  5
140
330
139
100
AcDbEntity
  8
CONTORNO
 62
     0
100
AcDbTrace
 10
16.0
 20
89.58333333333333
 30
0.0
 11
16.0
 21
90.41666666666667
 31
0.0
 12
18.5
 22
90.0
 32
0.0
 13
18.5
 23
90.0
 33
0.0
  0
MTEXT
  5
141
330
139
100
AcDbEntity
  8
CONTORNO
 62
     0
100
AcDbMText
 10
0.0
 20
91.9005798090041
 30
0.0
 40
2.5
 41
0.0
 71
     5
 72
     1
  1
37
  0
POINT
  5
142
330
139
100
AcDbEntity
  8
DEFPOINTS
 62
     0
100
AcDbPoint
 10
-18.5
 20
5.592179736328134
 30
0.0
  0
POINT
  5
143
330
139
100
AcDbEntity
  8
DEFPOINTS
 62
     0
100
AcDbPoint
 10
18.5
 20
5.592179736328134
 30
0.0
  0
POINT
  5
144
330
139
100
AcDbEntity
  8
DEFPOINTS
 62
     0
100
AcDbPoint
 10
18.5
 20
90.0
 30
0.0
  0
ENDBLK
  5
13B
330
139
100
AcDbEntity
  8
0
100
AcDbBlockEnd
  0
BLOCK
  5
149
330
148
100
AcDbEntity
  8
0
100
AcDbBlockBegin
  2
*D4
 70
     1
 10
0.0
 20
0.0
 30
0.0
  3
*D4
  1
*D4
  0
LINE
  5
14B
330
148
100
AcDbEntity
  8
CONTORNO
 62
     0
100
AcDbLine
 10
-11.5
 20
5.069179736328138
 30
0.0
 11
-11.5
 21
86.25
 31
0.0
  0
LINE
  5
14C
330
148
100
AcDbEntity
  8
CONTORNO
 62
     0
100
AcDbLine
 10
11.5
 20
5.069179736328138
 30
0.0
 11
11.5
 21
86.25
 31
0.0
  0
LINE
  5
14D
330
148
100
AcDbEntity
  8
CONTORNO
 62
     0
100
AcDbLine
 10
-9.0
 20
85.0
 30
0.0
 11
9.0
 21
85.0
 31
0.0
  0
SOLID
  5
14E
330
148
100
AcDbEntity
  8
CONTORNO
 62
     0
100
AcDbTrace
 10
-9.0
 20
85.41666666666667
 30
0.0
 11
-9.0
 21
84.58333333333333
 31
0.0
 12
-11.5
 22
85.0
 32
0.0
 13
-11.5
 23
85.0
 33
0.0
  0
SOLID
  5
14F
330
148
100
AcDbEntity
  8
CONTORNO
 62
     0
100
AcDbTrace
 10
9.0
 20
84.58333333333333
 30
0.0
 11
9.0
 21
85.41666666666667
 31
0.0
 12
11.5
 22
85.0
 32
0.0
 13
11.5
 23
85.0
 33
0.0
  0
MTEXT
  5
150
330
148
100
AcDbEntity
  8
CONTORNO
 62
     0
100
AcDbMText
 10
0.0
 20
86.9005798090041
 30
0.0
 40
2.5
 41
0.0
 71
     5
 72
     1
  1
23
  0
POINT
  5
151
330
148
100
AcDbEntity
  8
DEFPOINTS
 62
     0
100
AcDbPoint
 10
-11.5
 20
4.444179736328138
 30
0.0
  0
POINT
  5
152
330
148
100
AcDbEntity
  8
DEFPOINTS
 62
     0
100
AcDbPoint
 10
11.5
 20
4.444179736328138
 30
0.0
  0
POINT
  5
153
330
148
100
AcDbEntity
  8
DEFPOINTS
 62
     0
100
AcDbPoint
 10
11.5
 20
85.0
 30
0.0
  0
ENDBLK
  5
14A
330
148
100
AcDbEntity
  8
0
100
AcDbBlockEnd
  0
ENDSEC
  0
SECTION
  2
ENTITIES
  0
CIRCLE
  5
B8
330
1F
100
AcDbEntity
  8
CONTORNO
100
AcDbCircle
 10
0.0
 20
0.0
 30
0.0
 40
11.5
  0
CIRCLE
  5
B9
330
1F
100
AcDbEntity
  8
0
100
AcDbCircle
 10
0.0
 20
0.0
 30
0.0
 40
18.5
  0
CIRCLE
  5
BA
330
1F
100
AcDbEntity
  8
CONTORNO
100
AcDbCircle
 10
0.0
 20
0.0
 30
0.0
 40
18.5
  0
CIRCLE
  5
BD
330
1F
100
AcDbEntity
  8
0
100
AcDbCircle
 10
0.0
 20
15.0
 30
0.0
 40
3.0
  0
CIRCLE
  5
BE
330
1F
100
AcDbEntity
  8
0
100
AcDbCircle
 10
-7.499999999999999
 20
12.99038105676658
 30
0.0
 40
3.0
  0
CIRCLE
  5
BF
330
1F
100
AcDbEntity
  8
0
100
AcDbCircle
 10
-12.99038105676658
 20
7.500000000000002
 30
0.0
 40
3.0
  0
CIRCLE
  5
C0
330
1F
100
AcDbEntity
  8
0
100
AcDbCircle
 10
-15.0
 20
0.0000000000000009
 30
0.0
 40
3.0
  0
CIRCLE
  5
C1
330
1F
100
AcDbEntity
  8
0
100
AcDbCircle
 10
-12.99038105676658
 20
-7.499999999999996
 30
0.0
 40
3.000000000000001
  0
CIRCLE
  5
C2
330
1F
100
AcDbEntity
  8
0
100
AcDbCircle
 10
-7.500000000000005
 20
-12.99038105676658
 30
0.0
 40
3.0
  0
CIRCLE
  5
C3
330
1F
100
AcDbEntity
  8
0
100
AcDbCircle
 10
-0.0000000000000018
 20
-15.0
 30
0.0
 40
3.0
  0
CIRCLE
  5
C4
330
1F
100
AcDbEntity
  8
0
100
AcDbCircle
 10
7.499999999999996
 20
-12.99038105676658
 30
0.0
 40
3.000000000000001
  0
CIRCLE
  5
C5
330
1F
100
AcDbEntity
  8
0
100
AcDbCircle
 10
12.99038105676658
 20
-7.500000000000007
 30
0.0
 40
3.0
  0
CIRCLE
  5
C6
330
1F
100
AcDbEntity
  8
0
100
AcDbCircle
 10
15.0
 20
-0.0000000000000028
 30
0.0
 40
3.0
  0
CIRCLE
  5
C7
330
1F
100
AcDbEntity
  8
0
100
AcDbCircle
 10
12.99038105676659
 20
7.499999999999989
 30
0.0
 40
3.0
  0
CIRCLE
  5
C8
330
1F
100
AcDbEntity
  8
0
100
AcDbCircle
 10
7.500000000000007
 20
12.99038105676658
 30
0.0
 40
3.0
  0
CIRCLE
  5
C9
330
1F
100
AcDbEntity
  8
CONTORNO
100
AcDbCircle
 10
0.0
 20
0.0
 30
0.0
 40
78.74000000000001
  0
CIRCLE
  5
CA
330
1F
100
AcDbEntity
  8
CONTORNO
100
AcDbCircle
 10
0.0
 20
0.0
 30
0.0
 40
72.39
  0
CIRCLE
  5
CC
330
1F
100
AcDbEntity
  8
0
100
AcDbCircle
 10
0.0
 20
75.565
 30
0.0
 40
3.0
  0
CIRCLE
  5
CD
330
1F
100
AcDbEntity
  8
0
100
AcDbCircle
 10
-7.898693326820233
 20
75.15104702350357
 30
0.0
 40
3.0
  0
CIRCLE
  5
CE
330
1F
100
AcDbEntity
  8
0
100
AcDbCircle
 10
-15.71084691664398
 20
73.91372344945002
 30
0.0
 40
3.0
  0
CIRCLE
  5
CF
330
1F
100
AcDbEntity
  8
0
100
AcDbCircle
 10
-23.3508691799429
 20
71.86658565384327
 30
0.0
 40
3.0
  0
CIRCLE
  5
D0
330
1F
100
AcDbEntity
  8
0
100
AcDbCircle
 10
-30.73505443402284
 20
69.03206250676313
 30
0.0
 40
3.0
  0
CIRCLE
  5
D1
330
1F
100
AcDbEntity
  8
0
100
AcDbCircle
 10
-37.78249999999999
 20
65.44120963697111
 30
0.0
 40
3.0
  0
CIRCLE
  5
D2
330
1F
100
AcDbEntity
  8
0
100
AcDbCircle
 10
-44.41599258948073
 20
61.1333691799429
 30
0.0
 40
3.000000000000001
  0
CIRCLE
  5
D3
330
1F
100
AcDbEntity
  8
0
100
AcDbCircle
 10
-50.56285426950711
 20
56.15573873719929
 30
0.0
 40
3.0
  0
CIRCLE
  5
D4
330
1F
100
AcDbEntity
  8
0
100
AcDbCircle
 10
-56.15573873719929
 20
50.56285426950713
 30
0.0
 40
3.0
  0
CIRCLE
  5
D5
330
1F
100
AcDbEntity
  8
0
100
AcDbCircle
 10
-61.1333691799429
 20
44.41599258948074
 30
0.0
 40
3.0
  0
CIRCLE
  5
D6
330
1F
100
AcDbEntity
  8
0
100
AcDbCircle
 10
-65.4412096369711
 20
37.78250000000001
 30
0.0
 40
3.0
  0
CIRCLE
  5
D7
330
1F
100
AcDbEntity
  8
0
100
AcDbCircle
 10
-69.03206250676313
 20
30.73505443402285
 30
0.0
 40
3.0
  0
CIRCLE
  5
D8
330
1F
100
AcDbEntity
  8
0
100
AcDbCircle
 10
-71.86658565384327
 20
23.3508691799429
 30
0.0
 40
3.0
  0
CIRCLE
  5
D9
330
1F
100
AcDbEntity
  8
0
100
AcDbCircle
 10
-73.91372344945002
 20
15.71084691664399
 30
0.0
 40
3.0
  0
CIRCLE
  5
DA
330
1F
100
AcDbEntity
  8
0
100
AcDbCircle
 10
-75.15104702350357
 20
7.898693326820249
 30
0.0
 40
3.0
  0
CIRCLE
  5
DB
330
1F
100
AcDbEntity
  8
0
100
AcDbCircle
 10
-75.565
 20
0.0000000000000046
 30
0.0
 40
3.0
  0
CIRCLE
  5
DC
330
1F
100
AcDbEntity
  8
0
100
AcDbCircle
 10
-75.15104702350358
 20
-7.898693326820224
 30
0.0
 40
3.0
  0
CIRCLE
  5
DD
330
1F
100
AcDbEntity
  8
0
100
AcDbCircle
 10
-73.91372344945002
 20
-15.71084691664397
 30
0.0
 40
3.0
  0
CIRCLE
  5
DE
330
1F
100
AcDbEntity
  8
0
100
AcDbCircle
 10
-71.86658565384329
 20
-23.35086917994289
 30
0.0
 40
3.0
  0
CIRCLE
  5
DF
330
1F
100
AcDbEntity
  8
0
100
AcDbCircle
 10
-69.03206250676314
 20
-30.73505443402283
 30
0.0
 40
3.0
  0
CIRCLE
  5
E0
330
1F
100
AcDbEntity
  8
0
100
AcDbCircle
 10
-65.44120963697112
 20
-37.78249999999998
 30
0.0
 40
3.000000000000001
  0
CIRCLE
  5
E1
330
1F
100
AcDbEntity
  8
0
100
AcDbCircle
 10
-61.1333691799429
 20
-44.41599258948072
 30
0.0
 40
3.0
  0
CIRCLE
  5
E2
330
1F
100
AcDbEntity
  8
0
100
AcDbCircle
 10
-56.15573873719931
 20
-50.5628542695071
 30
0.0
 40
3.0
  0
CIRCLE
  5
E3
330
1F
100
AcDbEntity
  8
0
100
AcDbCircle
 10
-50.56285426950713
 20
-56.15573873719928
 30
0.0
 40
3.0
  0
CIRCLE
  5
E4
330
1F
100
AcDbEntity
  8
0
100
AcDbCircle
 10
-44.41599258948074
 20
-61.1333691799429
 30
0.0
 40
3.0
  0
CIRCLE
  5
E5
330
1F
100
AcDbEntity
  8
0
100
AcDbCircle
 10
-37.78250000000003
 20
-65.4412096369711
 30
0.0
 40
3.0
  0
CIRCLE
  5
E6
330
1F
100
AcDbEntity
  8
0
100
AcDbCircle
 10
-30.73505443402286
 20
-69.03206250676313
 30
0.0
 40
3.0
  0
CIRCLE
  5
E7
330
1F
100
AcDbEntity
  8
0
100
AcDbCircle
 10
-23.35086917994291
 20
-71.86658565384327
 30
0.0
 40
3.0
  0
CIRCLE
  5
E8
330
1F
100
AcDbEntity
  8
0
100
AcDbCircle
 10
-15.71084691664401
 20
-73.91372344945002
 30
0.0
 40
3.0
  0
CIRCLE
  5
E9
330
1F
100
AcDbEntity
  8
0
100
AcDbCircle
 10
-7.898693326820254
 20
-75.15104702350357
 30
0.0
 40
3.0
  0
CIRCLE
  5
EA
330
1F
100
AcDbEntity
  8
0
100
AcDbCircle
 10
-0.0000000000000093
 20
-75.565
 30
0.0
 40
3.0
  0
CIRCLE
  5
EB
330
1F
100
AcDbEntity
  8
0
100
AcDbCircle
 10
7.898693326820203
 20
-75.15104702350358
 30
0.0
 40
3.0
  0
CIRCLE
  5
EC
330
1F
100
AcDbEntity
  8
0
100
AcDbCircle
 10
15.71084691664396
 20
-73.91372344945002
 30
0.0
 40
3.0
  0
CIRCLE
  5
ED
330
1F
100
AcDbEntity
  8
0
100
AcDbCircle
 10
23.35086917994289
 20
-71.86658565384329
 30
0.0
 40
3.0
  0
CIRCLE
  5
EE
330
1F
100
AcDbEntity
  8
0
100
AcDbCircle
 10
30.73505443402281
 20
-69.03206250676315
 30
0.0
 40
3.0
  0
CIRCLE
  5
EF
330
1F
100
AcDbEntity
  8
0
100
AcDbCircle
 10
37.78249999999998
 20
-65.44120963697112
 30
0.0
 40
3.000000000000001
  0
CIRCLE
  5
F0
330
1F
100
AcDbEntity
  8
0
100
AcDbCircle
 10
44.41599258948072
 20
-61.1333691799429
 30
0.0
 40
3.0
  0
CIRCLE
  5
F1
330
1F
100
AcDbEntity
  8
0
100
AcDbCircle
 10
50.5628542695071
 20
-56.15573873719931
 30
0.0
 40
3.0
  0
CIRCLE
  5
F2
330
1F
100
AcDbEntity
  8
0
100
AcDbCircle
 10
56.15573873719928
 20
-50.56285426950713
 30
0.0
 40
3.0
  0
CIRCLE
  5
F3
330
1F
100
AcDbEntity
  8
0
100
AcDbCircle
 10
61.1333691799429
 20
-44.41599258948074
 30
0.0
 40
3.0
  0
CIRCLE
  5
F4
330
1F
100
AcDbEntity
  8
0
100
AcDbCircle
 10
65.44120963697108
 20
-37.78250000000003
 30
0.0
 40
3.0
  0
CIRCLE
  5
F5
330
1F
100
AcDbEntity
  8
0
100
AcDbCircle
 10
69.03206250676311
 20
-30.73505443402289
 30
0.0
 40
3.0
  0
CIRCLE
  5
F6
330
1F
100
AcDbEntity
  8
0
100
AcDbCircle
 10
71.86658565384327
 20
-23.35086917994291
 30
0.0
 40
3.0
  0
CIRCLE
  5
F7
330
1F
100
AcDbEntity
  8
0
100
AcDbCircle
 10
73.91372344945002
 20
-15.71084691664402
 30
0.0
 40
3.0
  0
CIRCLE
  5
F8
330
1F
100
AcDbEntity
  8
0
100
AcDbCircle
 10
75.15104702350357
 20
-7.898693326820292
 30
0.0
 40
3.000000000000001
  0
CIRCLE
  5
F9
330
1F
100
AcDbEntity
  8
0
100
AcDbCircle
 10
75.565
 20
-0.0000000000000139
 30
0.0
 40
3.0
  0
CIRCLE
  5
FA
330
1F
100
AcDbEntity
  8
0
100
AcDbCircle
 10
75.15104702350358
 20
7.898693326820198
 30
0.0
 40
3.0
  0
CIRCLE
  5
FB
330
1F
100
AcDbEntity
  8
0
100
AcDbCircle
 10
73.91372344945003
 20
15.71084691664393
 30
0.0
 40
3.0
  0
CIRCLE
  5
FC
330
1F
100
AcDbEntity
  8
0
100
AcDbCircle
 10
71.86658565384329
 20
23.35086917994289
 30
0.0
 40
3.0
  0
CIRCLE
  5
FD
330
1F
100
AcDbEntity
  8
0
100
AcDbCircle
 10
69.03206250676315
 20
30.73505443402281
 30
0.0
 40
3.0
  0
CIRCLE
  5
FE
330
1F
100
AcDbEntity
  8
0
100
AcDbCircle
 10
65.44120963697114
 20
37.78249999999994
 30
0.0
 40
3.0
  0
CIRCLE
  5
FF
330
1F
100
AcDbEntity
  8
0
100
AcDbCircle
 10
61.13336917994291
 20
44.41599258948072
 30
0.0
 40
3.0
  0
CIRCLE
  5
100
330
1F
100
AcDbEntity
  8
0
100
AcDbCircle
 10
56.15573873719933
 20
50.56285426950708
 30
0.0
 40
3.000000000000001
  0
CIRCLE
  5
101
330
1F
100
AcDbEntity
  8
0
100
AcDbCircle
 10
50.56285426950716
 20
56.15573873719925
 30
0.0
 40
3.0
  0
CIRCLE
  5
102
330
1F
100
AcDbEntity
  8
0
100
AcDbCircle
 10
44.41599258948074
 20
61.1333691799429
 30
0.0
 40
3.0
  0
CIRCLE
  5
103
330
1F
100
AcDbEntity
  8
0
100
AcDbCircle
 10
37.78250000000003
 20
65.44120963697108
 30
0.0
 40
3.0
  0
CIRCLE
  5
104
330
1F
100
AcDbEntity
  8
0
100
AcDbCircle
 10
30.7350544340229
 20
69.03206250676311
 30
0.0
 40
3.0
  0
CIRCLE
  5
105
330
1F
100
AcDbEntity
  8
0
100
AcDbCircle
 10
23.35086917994292
 20
71.86658565384327
 30
0.0
 40
3.0
  0
CIRCLE
  5
106
330
1F
100
AcDbEntity
  8
0
100
AcDbCircle
 10
15.71084691664402
 20
73.91372344945002
 30
0.0
 40
3.0
  0
CIRCLE
  5
107
330
1F
100
AcDbEntity
  8
0
100
AcDbCircle
 10
7.898693326820297
 20
75.15104702350357
 30
0.0
 40
3.000000000000001
  0
DIMENSION
  5
118
102
{ACAD_XDICTIONARY
360
119
102
}
330
1F
100
AcDbEntity
  8
CONTORNO
100
AcDbDimension
  2
*D1
 10
78.74000000000001
 20
100.0
 30
0.0
 11
0.0
 21
102.1273874488404
 31
0.0
 70
    32
  3
ISO-25
100
AcDbAlignedDimension
 13
-78.74000000000001
 23
6.925179736328133
 33
0.0
 14
78.74000000000001
 24
6.925179736328133
 34
0.0
100
AcDbRotatedDimension
  0
DIMENSION
  5
127
102
{ACAD_XDICTIONARY
360
128
102
}
330
1F
100
AcDbEntity
  8
CONTORNO
100
AcDbDimension
  2
*D2
 10
72.39
 20
95.0
 30
0.0
 11
0.0
 21
97.12738744884038
 31
0.0
 70
    32
  3
ISO-25
100
AcDbAlignedDimension
 13
-72.39
 23
6.740179736328145
 33
0.0
 14
72.39
 24
6.740179736328145
 34
0.0
100
AcDbRotatedDimension
  0
DIMENSION
  5
136
102
{ACAD_XDICTIONARY
360
137
102
}
330
1F
100
AcDbEntity
  8
CONTORNO
100
AcDbDimension
  2
*D3
 10
18.5
 20
90.0
 30
0.0
 11
0.0
 21
91.9005798090041
 31
0.0
 70
    32
  3
ISO-25
100
AcDbAlignedDimension
 13
-18.5
 23
5.592179736328134
 33
0.0
 14
18.5
 24
5.592179736328134
 34
0.0
100
AcDbRotatedDimension
  0
DIMENSION
  5
145
102
{ACAD_XDICTIONARY
360
146
102
}
330
1F
100
AcDbEntity
  8
CONTORNO
100
AcDbDimension
  2
*D4
 10
11.5
 20
85.0
 30
0.0
 11
0.0
 21
86.9005798090041
 31
0.0
 70
    32
  3
ISO-25
100
AcDbAlignedDimension
 13
-11.5
 23
4.444179736328138
 33
0.0
 14
11.5
 24
4.444179736328138
 34
0.0
100
AcDbRotatedDimension
  0
ENDSEC
  0
SECTION
  2
OBJECTS
  0
DICTIONARY
  5
C
330
0
100
AcDbDictionary
  3
ACAD_DETAILVIEWSTYLE
350
B5
  3
ACAD_GROUP
350
D
  3
ACAD_IMAGE_VARS
350
6A
  3
ACAD_MLINESTYLE
350
17
  3
ACAD_SCALELIST
350
40
  3
ACAD_SECTIONVIEWSTYLE
350
B6
  3
ACDBVARIABLEDICTIONARY
350
3D
  3
APPDATA
350
71
  3
DWGPROPS
350
155
  0
DICTIONARY
  5
108
330
2
100
AcDbDictionary
280
     1
  3
ACAD_LAYERSTATES
360
109
  3
ACLYDICTIONARY
360
116
  0
DICTIONARY
  5
119
330
118
100
AcDbDictionary
280
     1
  0
DICTIONARY
  5
128
330
127
100
AcDbDictionary
280
     1
  0
DICTIONARY
  5
137
330
136
100
AcDbDictionary
280
     1
  0
DICTIONARY
  5
146
330
145
100
AcDbDictionary
280
     1
  0
DICTIONARY
  5
B5
102
{ACAD_REACTORS
330
C
102
}
330
C
100
AcDbDictionary
  0
DICTIONARY
  5
D
102
{ACAD_REACTORS
330
C
102
}
330
C
100
AcDbDictionary
  0
RASTERVARIABLES
  5
6A
102
{ACAD_REACTORS
330
C
102
}
330
C
100
AcDbRasterVariables
 90
        0
 70
     1
 71
     1
 72
     1
  0
DICTIONARY
  5
17
102
{ACAD_REACTORS
330
C
102
}
330
C
100
AcDbDictionary
  3
STANDARD
350
18
  0
DICTIONARY
  5
40
102
{ACAD_REACTORS
330
C
102
}
330
C
100
AcDbDictionary
  0
DICTIONARY
  5
B6
102
{ACAD_REACTORS
330
C
102
}
330
C
100
AcDbDictionary
  0
DICTIONARY
  5
3D
102
{ACAD_REACTORS
330
C
102
}
330
C
100
AcDbDictionary
  0
DICTIONARY
  5
71
102
{ACAD_REACTORS
330
C
102
}
330
C
100
AcDbDictionary
  0
XRECORD
  5
155
102
{ACAD_REACTORS
330
C
102
}
330
C
100
AcDbXrecord
  1
DWGPROPS COOKIE
  2

  3

  4

  6

  7

  8
mauroalfieri
  9

300
=
301
=
302
=
303
=
304
=
305
=
306
=
307
=
308
=
309
=
 40
0.0
 41
2455022.637359514
 42
2457248.58
  1

 90
        0
  0
DICTIONARY
  5
109
102
{ACAD_REACTORS
330
108
102
}
330
108
100
AcDbDictionary
  0
DICTIONARY
  5
116
102
{ACAD_REACTORS
330
108
102
}
330
108
100
AcDbDictionary
1001
ACAD
1000
<All
  0
MLINESTYLE
  5
18
102
{ACAD_REACTORS
330
17
102
}
330
17
100
AcDbMlineStyle
  2
Standard
 70
     0
  3

 62
   256
 51
90.0
 52
90.0
 71
     2
 49
0.5
 62
   256
  6
BYLAYER
 49
-0.5
 62
   256
  6
BYLAYER
  0
ENDSEC
  0
EOF
